BBC The Secrets of Quantum Physics (2014) EP 02 HDTV XViD (Dokumentarni Filmovi)

[font=Georgia]BBC The Secrets of Quantum Physics (2014)[/font] [font=Georgia]Žanr Dokumentarac
Jezik EN
Titlovi HR(Zaljepljeni)

Profesor fizike Jim Al-Khalili istražuje najprecizniju i najkomplikovaniju nauÄ�nu teoriju ikada – kvantnu fiziku.[/font]






[font=Georgia]Video
ID : 0
Format : MPEG-4 Visual
Format profile : Advanced [email protected]
Format settings, BVOP : 2
Format settings, QPel : No
Format settings, GMC : No warppoints
Format settings, Matrix : Default (H.263)
Codec ID : XVID
Codec ID/Hint : XviD
Duration : 59mn 5s
Bit rate : 910 Kbps
Width : 640 pixels
Height : 360 pixels
Display aspect ratio : 16:9
Frame rate : 25.000 fps
Color space : YUV
Chroma subsampling : 4:2:0
Bit depth : 8 bits
Scan type : Progressive
Compression mode : Lossy
Bits/(Pixel*Frame) : 0.158
Stream size : 385 MiB (87%)
Writing library : XviD 1.2.1 (UTC 2008-12-04)

Audio
ID : 1
Format : MPEG Audio
Format version : Version 1
Format profile : Layer 3
Mode : Joint stereo
Mode extension : MS Stereo
Codec ID : 55
Codec ID/Hint : MP3
Duration : 59mn 4s
Bit rate mode : Constant
Bit rate : 128 Kbps
Channel(s) : 2 channels
Sampling rate : 44.1 KHz
Compression mode : Lossy
Delay relative to video : 40ms
Stream size : 54.1 MiB (12%)
Alignment : Aligned on interleaves
Interleave, duration : 26 ms (0.65 video frame)
Interleave, preload duration : 522 ms[/font]


Download bbc.the.secrets.of.quantum.physics.2014.ep.02.hdtv.xvid.dokumentarni.filmovi.zip
Direct Link


Download


Download bbc.the.secrets.of.quantum.physics.2014.ep.02.hdtv.xvid.dokumentarni.filmovi.zip
Mediafire


Download


Download bbc.the.secrets.of.quantum.physics.2014.ep.02.hdtv.xvid.dokumentarni.filmovi.zip
Queenshare


Download

Both comments and pings are currently closed.

Comments are closed.